<?xml version="1.0" standalone="no"?>
<!DOCTYPE svg PUBLIC "-//W3C//DTD SVG 1.1//EN" "http://www.w3.org/Graphics/SVG/1.1/DTD/svg11.dtd">
<svg xmlns="http://www.w3.org/2000/svg">
<metadata>Copyright (C) 2016 by original authors @ fontello.com</metadata>
<defs>
<font id="fontello" horiz-adv-x="1000" >
<font-face font-family="fontello" font-weight="400" font-stretch="normal" units-per-em="1000" ascent="850" descent="-150" />
<missing-glyph horiz-adv-x="1000" />
<glyph glyph-name="info-circled" unicode="&#xe800;" d="M454 810q190 2 326-130t140-322q2-190-131-327t-323-141q-190-2-327 131t-139 323q-4 190 130 327t324 139z m52-152q-42 0-65-24t-23-50q-2-28 15-44t49-16q38 0 61 22t23 54q0 58-60 58z m-120-594q30 0 84 26t106 78l-18 24q-48-36-72-36-14 0-4 38l42 160q26 96-22 96-30 0-89-29t-115-75l16-26q52 34 74 34 12 0 0-34l-36-152q-26-104 34-104z" horiz-adv-x="920" />

<glyph glyph-name="ok-circle" unicode="&#xe801;" d="M465 797q184 0 315-131t131-316-131-315-315-132-316 132-131 315 131 316 316 131z m-70-653l348 348-79 79-269-268-126 126-79-78z" horiz-adv-x="928" />

<glyph glyph-name="advanced-type" unicode="&#xe802;" d="M686 848l-372-560-249-373-62 0 0-62 249 0 0 62-125 0 168 249 395 0 59-249-63 0 0-62 311 0 0 62-62 0-249 933z m-307-560l210 311 72-311-282 0z" horiz-adv-x="1000" />

<glyph glyph-name="devices" unicode="&#xe803;" d="M958-82l-164 0c-24 0-43 20-43 44l0 324c0 24 19 44 43 44l164 0c23 0 42-20 42-44l0-324c0-24-19-44-42-44z m-82 22c10 0 18 8 18 18 0 10-8 19-18 19-10 0-18-9-18-19 0-10 8-18 18-18z m73 337l-147 0 0-280 147 0 0 280z m-157 345l-6 0 0 37c0 10-7 17-16 17l-614 0 0-488 198 0 0-106-236 0c-65 0-118 55-118 123l0 454c0 68 53 123 118 123l652 0c65 0 118-55 118-123l0-80c-24 27-58 43-96 43z m-709-146c-23 0-42-20-42-44 0-24 19-44 42-44 23 0 42 20 42 44 0 24-19 44-42 44z m402 88l307 0c45 0 81-37 81-84l0-111-67 0 0 111c0 8-6 14-14 14l-307 0c-7 0-13-6-13-14l0-443 237 0 0-80c0-6 1-12 2-17 1-8 4-15 7-22l-233 0c-44 0-81 38-81 85l0 477c0 47 37 84 81 84z m154-615c16 0 28 14 28 30 0 17-12 30-28 30-16 0-29-13-29-30 0-16 13-30 29-30z" horiz-adv-x="1000" />

<glyph glyph-name="extension-browser" unicode="&#xe804;" d="M779 207l0 57 221 0 0-57-221 0z m0 435l221 0 0-57-221 0 0 57z m-56-453l0 94 0 284 0 94 0 189 37 0 0-38 0-756 0-56-37 0 0 189z m-442 39l0 376c9 22 251 220 277 227l147 0 0-812-147 0c-30 7-263 183-277 209z m-183 92c-16-56 66-138 95-178 54-73 161-220 39-286-52-28-103 51-50 79 48 26-158 279-174 336-49 173 133 185 254 193l0-91c-65 1-148 3-164-53z" horiz-adv-x="1000" />

<glyph glyph-name="general-settings" unicode="&#xe805;" d="M974 796c-17 17-39 26-63 26-24 0-46-9-63-26l-397-397 126-126 397 397c35 35 35 91 0 126z m-36-71l-341-341c-5-5-11-8-18-8-6 0-12 3-17 8-10 9-10 25 0 35l341 341c10 10 25 10 35 0 10-10 10-25 0-35z m24-666l-265 264-85-85 13-13c10-10 10-25 0-35-5-5-11-7-17-7-7 0-13 2-18 7l-30 31c0 0 0 0 0 0l-63 62 0 0-35 36 0 0-63 62 0 0-31 31c-9 10-9 25 0 35 10 10 26 10 35 0l13-13 85 85-76 76c14 69-8 142-59 192-40 41-94 63-151 63-21 0-41-3-61-9-8-2-15-9-17-17-2-9 1-18 7-24l82-82c17-17 17-45 0-63l-31-30c-9-9-20-13-32-13-12 0-23 4-31 13l-82 81c-6 7-15 9-24 7-8-2-15-9-17-17-24-82 3-170 68-225 39-33 88-51 138-51 13 0 27 2 41 4l156-156-255-254-14 13c-5 6-12 8-20 8-7-1-14-5-18-11l-72-107c-7-10-6-23 3-32l28-28c4-5 11-7 17-7 5 0 10 1 14 4l107 73c6 4 10 10 11 18 0 7-2 15-7 20l-14 13 255 255 344-345c23-22 53-35 86-35 32 0 62 13 85 35 47 47 47 124 0 171z m-50-121c-12-12-28-18-44-18-17 0-33 6-45 18-24 25-24 64 0 89 12 12 28 18 45 18 16 0 32-6 44-18 24-25 24-64 0-89z" horiz-adv-x="1000" />

<glyph glyph-name="infinity-cache" unicode="&#xe806;" d="M229 90c142 0 235 124 318 234 71 94 138 182 219 182 85 0 137-93 137-160 0-62-57-152-147-152-86 0-131 74-134 78-14 25-43 32-66 17-23-15-31-47-17-71 3-6 75-128 217-128 144 0 244 135 244 256 0 125-96 264-234 264-128 0-212-112-294-221-76-100-148-195-243-195-57 0-94 21-114 63-18 37-18 79-18 93 0 8 4 50 23 87 22 43 52 63 97 63 89 0 137-62 155-86 5-6 8-10 12-14 21-19 52-17 69 5 17 21 15 53-3 72-1 1-2 2-3 4-24 30-96 123-230 123-164 0-217-171-217-255 0-53 9-100 28-139 26-55 81-120 201-120z" horiz-adv-x="1000" />

<glyph glyph-name="mobile-phone" unicode="&#xe807;" d="M773-127l-546 0c-33 0-60 27-60 60l0 834c0 33 27 60 60 60l546 0c33 0 60-27 60-60l0-834c0-33-27-60-60-60z m-273 43c26 0 47 21 47 47 0 25-21 46-47 46-26 0-47-21-47-46 0-26 21-47 47-47z m-273 791l0-655 546 0 0 47-543 0 0 552 543 0 0 56-546 0z m524-576l0 489-490 0 0-489 490 0z m-47 372l-395 0 0 69 395 0 0-69z m0-108l-395 0 0 69 395 0 0-69z m0-108l-395 0 0 68 395 0 0-68z m0-109l-395 0 0 69 395 0 0-69z" horiz-adv-x="1000" />

<glyph glyph-name="multi-ads" unicode="&#xe808;" d="M917-107l-772 0c0 0 0 0 0 0l-14 0c-13-8-30-9-45-1-2 0-5 0-7 1l-57 0c-11 0-21 9-21 21l0 21c0 2 0 3 0 4l0 19c-1 7-1 13 0 20l0 32c0 1 0 2 0 4l0 815c0 12 10 21 21 21l123 0c11 0 20-9 20-21l0-563 276 474c13 22 41 30 64 17l61-35c22-13 30-42 17-64l-262-452 461 265c23 13 51 6 64-17l36-60c12-23 5-51-18-64l-476-274 529 0c26 0 47-21 47-46l0-71c0-25-21-46-47-46z" horiz-adv-x="1000" />

<glyph glyph-name="related-posts" unicode="&#xe809;" d="M673 244l-100 100 242 241c27 28 27 73 0 100-28 28-73 28-100 0l-55-54-100 100 54 55c83 82 218 82 301 0 82-83 82-218 0-301l-242-241z m-167 200l-241 241c-28 28-73 28-100 0-28-27-28-72 0-100l54-54-100-100-55 54c-82 83-82 218 0 301 83 82 218 82 301 0l241-242-100-100z m-200 33l100-100-241-241c-28-28-28-73 0-101 27-27 72-27 100 0l54 55 100-100-54-55c-42-41-96-62-150-62-55 0-109 21-151 62-82 83-82 218 0 301l242 241z m167-200l242-242c27-27 72-27 100 0 27 28 27 73 0 101l-55 54 100 100 55-54c82-83 82-218 0-301-42-41-96-62-150-62-55 0-109 21-151 62l-241 242 100 100z" horiz-adv-x="1000" />

<glyph glyph-name="responsive-images" unicode="&#xe80a;" d="M994 498l-151-310c-2-5-7-6-12-4l-34 16 0 107 56-26 99 204-317 148-59-120-43 0 80 164c2 4 7 6 11 4l366-172c4-2 6-7 4-11z m-634 137l-317-148 99-204 56 26 0-107-35-16c-4-2-9-1-11 4l-151 310c-2 4 0 9 4 11l366 172c4 2 9 0 11-4l80-164-44 0-58 120z m-112-150l514 0c7 0 11-4 11-10l0-437c0-6-4-11-11-11l-514 0c-6 0-11 5-11 11l0 437c0 6 5 10 11 10z m38-335l78 0c0 0 57 223 116 166 59-58 80-166 80-166 0 0 21 96 62 106 36 9 59-58 78-106l33 0 0 287-447 0 0-287z m368 197c-11 0-21 2-29 5-6-1-14-2-22-2-28 0-51 9-51 20 0 9 16 17 38 19 1 9 8 16 17 16l7 0c5 0 9-2 12-5 8 3 17 5 28 5 26 0 48-13 48-29 0-16-22-29-48-29z m-296-7c-20 0-36 16-36 35 0 20 16 36 36 36 21 0 37-16 37-36 0-19-16-35-37-35z" horiz-adv-x="1000" />

<glyph glyph-name="book-open" unicode="&#xe80b;" d="M340 238l0-68-200 80 0 68z m0 208l0-68-200 80 0 68z m538 346q22-12 22-42l0-640q0-34-32-46l-398-160q-8-2-10-2t-5-1-5-1-5 1-5 1l-10 2-398 160q-32 12-32 46l0 640q0 30 22 42 22 16 46 6l382-154 382 154q24 10 46-6z m-478-788l0 560-320 128 0-560z m420 128l0 560-320-128 0-560z m-60 186l0-68-200-80 0 68z m0 208l0-68-200-80 0 68z" horiz-adv-x="900" />

<glyph glyph-name="site-compatibility" unicode="&#xe80c;" d="M856 374c16-28 48-44 81-38 41 7 69 48 62 90-7 42-47 71-89 63-33-6-58-32-63-64l-212-38c-4 17-12 33-21 46l135 164c30-11 65-3 86 23 28 33 23 82-9 110-33 28-81 23-109-10-21-26-23-62-7-89l-134-162c-15 10-32 17-50 21l0 209c30 10 51 39 51 73 0 43-34 78-77 78-42 0-77-35-77-78 0-34 22-63 52-73l0-209c-19-4-36-11-51-21l-134 162c16 27 15 63-7 89-27 33-76 38-108 10-33-28-37-77-10-110 22-26 56-34 86-23l136-164c-10-13-18-29-22-46l-212 38c-5 32-29 58-62 64-42 8-82-21-90-63-7-42 21-83 63-90 33-6 65 10 80 38l217-39c1-15 5-29 11-43l-194-113c-24 21-59 25-88 8-37-22-50-69-28-107 21-37 68-50 105-28 29 17 43 50 37 82l197 115c10-9 20-17 32-24l-79-219c-32 0-62-19-73-51-15-41 6-86 46-100 40-15 84 6 99 46 11 32 1 67-24 87l80 221c6 0 12-1 18-1 6 0 13 1 19 1l79-221c-24-20-35-55-23-87 14-40 58-61 98-46 40 14 61 59 46 100-11 32-41 51-73 51l-79 219c12 7 23 15 32 24l197-115c-5-32 9-65 38-82 36-22 84-9 105 28 21 38 8 85-28 107-29 17-65 13-89-8l-194 113c6 14 10 28 12 43l216 39z" horiz-adv-x="1000" />

<glyph glyph-name="theme-browser" unicode="&#xe80d;" d="M966 380l-116-92-164 203 116 93c5 4 12 6 18 6 9 0 17-4 23-11l127-158c11-12 8-31-4-41z m-336 153l-229 128 73 128c5 9 15 15 25 15 5 0 10-1 15-4l177-99c7-4 12-10 14-17 2-8 1-16-3-22l-72-129z m-120-212l-175 97 0 125 39 69 229-127-93-164z m-167-362l30 54 52-64-116-93c-5-4-12-6-18-6-9 0-18 4-23 11l-19 23 42 0c29 0 52 23 52 52l0 23z m-74-54l-215 0c-17 0-31 14-31 31l0 155 277 0 0-155c0-17-14-31-31-31z m-107 121c-16 0-29-12-29-28 0-15 13-28 29-28 15 0 28 13 28 28 0 16-13 28-28 28z m-139 322l277 0 0-198-277 0 0 198z m0 257l277 0 0-198-277 0 0 198z m0 214c0 17 14 31 31 31l215 0c17 0 31-14 31-31l0-155-277 0 0 155z m312-743l28-16-28-50 0 66z m0 279l148-83-93-164-55 31 0 216z m167-113l114-141-148-118-66 82 100 177z m106 187l35 28 2-3 162-201-148-117-127 158 76 135z" horiz-adv-x="1000" />

<glyph glyph-name="theme-customizer" unicode="&#xe80e;" d="M768 399l-38 0-45 0 13 152c17 15 42 46 51 98 17 112-101 194-106 197-8 6-19 5-27-2-7-7-10-18-5-28 0 0 21-47 1-67-10-11-18-16-26-20-19-11-33-22-41-57-11-41 7-81 18-100l-40-173-60 0-17 196c0 0 0 0 0 0 0 2-1 3-1 4 0 1 0 1 0 1 0 1-1 2-1 3l-79 173-1 2 0 0 0 0c-1 1-1 1-1 1-2 5-7 9-12 11-3 1-6 2-10 2 0 0 0 0 0 0-3-1-6-2-9-4 0 0 0 0-1 0 0 0-1-1-1-1-1 0-1-1-1-1-1 0-1-1-1-1-1 0-1-1-2-1 0-1 0-1 0-1-1-1-1-1-2-2 0 0 0 0 0-1 0-1-1-1-1-2 0-1 0-1 0-1-1-1-1-2-2-3l-47-190c-1-1-1-2-1-3 0 0 0-1 0-1 0-1 0-2 0-4 0 0 0 0 0 0l16-177-21 0-36 0c-13 0-23-11-23-24 0-13 10-23 23-23l16 0 57-481c1-12 11-21 22-21l344 0c11 0 21 9 22 21l57 481 18 0c13 0 23 10 23 23 0 13-10 24-23 24z m-164 149l3-1 45-7-12-141-71 0 35 149z m-264 116l25 3 24-54-63-8 14 59z m-1-105l45 6 15-166-46 0-14 160z" horiz-adv-x="1000" />

<glyph glyph-name="theme-settings" unicode="&#xe80f;" d="M980 265l-121-23c-7-25-17-48-29-71l69-101c6-9 5-23-3-31l-86-86c-8-8-22-10-32-3l-101 69c-22-12-46-22-71-29l-23-120c-2-11-13-20-24-20l-122 0c-11 0-22 9-24 20l-23 121c-24 8-47 17-68 29l-100-69c-10-6-24-5-32 3l-86 86c-8 8-9 22-3 32l69 100c-12 22-22 46-29 70l-121 23c-11 2-20 13-20 24l0 122c0 11 9 22 20 25l121 22c7 24 16 47 28 69l-69 101c-7 10-5 24 3 32l86 86c8 8 22 9 31 3l101-69c22 12 45 21 69 29l23 121c2 11 13 20 24 20l122 0c11 0 22-9 24-20l23-120c25-7 49-17 72-29l102 69c9 7 23 6 31-3l86-86c8-8 10-22 3-31l-69-102c11-22 21-46 28-70l121-22c11-3 20-14 20-25l0-122c0-11-9-22-20-24z m-480 294c-115 0-209-94-209-209 0-115 94-209 209-209 115 0 209 94 209 209 0 115-94 209-209 209z m0-295c-48 0-86 38-86 86 0 48 38 86 86 86 48 0 86-38 86-86 0-48-38-86-86-86z" horiz-adv-x="1000" />

<glyph glyph-name="web-app-mode" unicode="&#xe810;" d="M5 251l0 132c0 12 10 22 23 22l237 0-103-176-134 0c-13 0-23 10-23 22z m169-270l-75-50c-11-7-18-3-16 9l10 87c1 12 11 16 22 10l58-32c11-7 11-17 1-24z m18 49l-58 33c-11 6-15 19-8 30l271 462c6 10 20 14 31 8l58-33c11-6 15-19 9-30l-272-462c-6-11-20-14-31-8z m207 199l103 176 60 0 84-176-247 0z m336-52c-23 11-140 275-170 344-30 69-120 252-91 266 21 10 96-134 152-220 56-87 173-310 187-336 14-25-14-46-29-53-16-6-25-13-49-1z m77-121l-35 54c-7 12-4 26 8 32l34 16c12 6 27 2 33-10l28-53c6-12 2-27-10-33l-24-14c-11-7-26-4-34 8z m130-144c-7 24-63 25-89 60-25 35-4 53 5 61 102 56 84-121 84-121z m53 339c0-12-10-22-23-22l-118 0c-2 7-4 14-7 20-4 6-11 20-22 41-16 29-39 71-63 115l210 0c13 0 23-10 23-22l0-132 0 0z" horiz-adv-x="1000" />

<glyph glyph-name="js" unicode="&#xe811;" d="M917 766h-303c-1 0-3 0-4 0v84l-591-79v-840l591-81v86c1 0 3 0 4 0h303c35 0 64 29 64 64v702c0 36-29 64-64 64z m-663-436c0-63-29-84-74-83-11 0-25 2-34 6l5 39c7-2 15-4 24-4 19 0 32 9 32 43v137l47 2v-140z m94-87c-25 0-50 8-62 15l10 41c13-7 34-14 55-14 23-1 35 9 35 24 0 14-10 22-37 32-37 13-60 34-60 66 0 38 31 68 83 69 25 1 44-4 58-10l-12-42c-9 4-25 11-47 10-22 0-32-10-32-22 0-15 12-21 41-32 40-14 59-36 59-68 0-39-29-71-91-69z m596-243c0-15-12-27-27-27h-303c-1 0-3 0-4 0v86c8-15 22-27 39-33 18-6 41-5 57 1 21 9 33 26 36 51 0 2 0 31 0 84v81h-22-22l-1-81 0-80-1-4c-1-5-3-8-5-10-4-4-9-6-17-6-12 0-19 5-27 19-1 2-2 4-3 4 0 0-8-5-18-11l-16-10v665c1 1 3 1 4 1h303c15 0 27-13 27-28v-702z m-28 114c5-9 7-18 7-29 0-18-6-32-17-43-11-10-25-17-43-19-8-1-22-1-29 0-30 4-51 17-65 41-2 3-2 4-2 4 1 1 36 21 36 21 0 0 1-2 3-4 11-16 24-23 42-23 10 0 18 3 24 8 1 2 3 4 4 5 3 8 2 17-4 23-4 5-11 9-30 17-14 6-22 10-28 13-23 14-34 32-34 57 0 17 6 31 17 42 10 10 25 17 42 18 6 0 7 0 14 0 14-1 25-5 35-11 5-4 13-12 18-19 2-3 3-5 3-5 0-1-33-22-34-23 0 0-1 1-3 4-1 2-4 5-6 7-5 6-11 8-20 8-8 0-13-2-17-7-3-3-4-6-5-11 0-6 2-11 6-15 4-5 10-8 29-16 25-11 37-18 47-28 5-5 8-9 10-15z" horiz-adv-x="1000" />

<glyph glyph-name="cancel-circled" unicode="&#xe812;" d="M420 770q174 0 297-123t123-297-123-297-297-123-297 123-123 297 123 297 297 123z m86-420l154 154-86 86-154-152-152 152-88-86 154-154-154-152 88-86 152 152 154-152 86 86z" horiz-adv-x="840" />

<glyph glyph-name="plus-circled" unicode="&#xe813;" d="M420 770q174 0 297-123t123-297-123-297-297-123-297 123-123 297 123 297 297 123z m52-470l200 0 0 102-200 0 0 202-102 0 0-202-202 0 0-102 202 0 0-202 102 0 0 202z" horiz-adv-x="840" />

<glyph glyph-name="check" unicode="&#xe814;" d="M249 0q-34 0-56 28l-180 236q-16 24-12 52t26 46 51 14 47-28l118-154 296 474q16 24 43 30t53-8q24-16 30-43t-8-53l-350-560q-20-32-56-32z" horiz-adv-x="667" />

<glyph glyph-name="right-open-big" unicode="&#xe815;" d="M13-20l358 370-358 372q-26 26 0 48 26 26 48 0l392-394q24-26 0-50l-392-394q-22-26-48 0-26 22 0 48z" horiz-adv-x="465" />

<glyph glyph-name="cloud307" unicode="&#xe816;" d="M808 475c-29 142-154 250-308 250-62 0-121-17-167-50l63-62c29 20 67 29 104 29 125 0 229-104 229-229v-21h63c71 0 125-54 125-125 0-46-25-88-67-109l63-62c54 37 87 100 87 171 0 108-87 200-192 208z m-683 196l117-113c-134-8-242-116-242-250 0-137 113-250 250-250h488l83-83 54 54-696 696-54-54z m196-196l333-333h-404c-92 0-167 75-167 166 0 92 75 167 167 167h71z" horiz-adv-x="1000" />

<glyph glyph-name="left-open-big" unicode="&#xe817;" d="M452-20q26-26 0-48-26-26-48 0l-392 394q-24 24 0 50l392 394q22 26 48 0 26-22 0-48l-358-372z" horiz-adv-x="465" />

<glyph glyph-name="megaphone" unicode="&#xe818;" d="M792 500q58-138 67-258t-39-140q-28-12-61 3t-65 40-99 41-149 8q-28-4-42-19t-6-37q22-56 46-108 4-10 24-22t24-20q14-34-22-46-50-22-102-40-30-10-54 42-32 76-58 132-6 12-34 17t-46 31q-30-10-38-14-34-12-74 12t-54 60q-17 32-5 79t43 61q126 52 213 108t124 103 59 92 25 78 15 59 36 36q48 20 130-70t142-228z m-28-300q8 4 10 38t-11 98-41 128q-28 66-67 123t-67 84-36 23-10-42 10-105 40-133 68-119 68-76 36-19z" horiz-adv-x="860" />

<glyph glyph-name="tablet" unicode="&#xe819;" d="M613 788c55 0 98-45 98-100l0-675c0-56-43-101-98-101l-514 0c-55 0-99 45-99 101l0 675c0 55 44 100 99 100l514 0z m-22-720l0 600-471 0 0-600 471 0z m-235-123c28 0 48 22 48 47 0 28-20 48-48 48s-47-20-47-48c0-25 20-47 47-47z" horiz-adv-x="711" />

<glyph glyph-name="alert" unicode="&#xe81a;" d="M885 234q20-16 16-33t-28-23l-78-22q-24-6-40-28t-14-48l4-82q2-24-14-34t-38 0l-86 44q-22 12-47 4t-35-30l-46-88q-12-22-29-23t-33 19l-50 78q-34 48-88 20l-122-70q-22-14-32-6t-2 32l54 164q8 24-4 44t-36 22l-106 12q-24 4-29 18t15 30l86 76q20 16 20 41t-20 41l-86 76q-20 16-16 33t28 23l78 22q24 6 41 28t15 48l-6 82q0 26 15 36t37 0l80-38q24-10 49-2t37 30l46 80q12 22 30 21t30-23l50-86q12-22 35-29t45 7l136 84q22 14 30 6t0-32l-60-170q-10-22 2-41t38-21l114-12q26-2 30-16t-16-30l-86-76q-18-16-18-41t18-41z m-384-92l0 104-100 0 0-104 100 0z m0 160l0 260-100 0 0-260 100 0z" horiz-adv-x="901" />

<glyph glyph-name="mobile" unicode="&#xe81b;" d="M238-31c27 0 47 23 47 48 0 27-20 47-47 47s-48-20-48-47c0-25 20-48 48-48z m-154 794l307 0c50 0 84-34 84-81l0-670c0-42-34-75-75-75l-325 0c-41 0-75 33-75 75l0 670c0 47 34 81 84 81z m91-54c-9 0-15-7-15-16s6-16 15-16l125 0c9 0 15 7 15 16s-6 16-15 16l-125 0z m255-607l0 496-385 0 0-496 385 0z" horiz-adv-x="475" />

<glyph glyph-name="key" unicode="&#xe81c;" d="M774 612q20-116-28-215t-150-117q-66-12-130-2l-118-194-70-12-104-166q-14-28-46-32l-76-14q-12-4-22 4t-12 22l-16 98q-8 30 12 56l258 386q-24 50-38 120-18 106 53 187t185 101q106 20 195-45t107-177z m-126-76q30 44 21 97t-51 83q-42 32-92 22t-80-54q-8-12-12-23t-1-20 5-16 13-17 18-15 22-16 23-17q6-4 22-16t23-16 19-12 19-8 17 1 18 8 16 19z" horiz-adv-x="780" />

<glyph glyph-name="download-cloud" unicode="&#xe81d;" d="M714 332q0 8-5 13t-13 5h-125v196q0 8-5 13t-12 5h-108q-7 0-12-5t-5-13v-196h-125q-8 0-13-5t-5-13q0-8 5-13l196-196q5-5 13-5t13 5l196 196q5 6 5 13z m357-125q0-89-62-151t-152-63h-607q-103 0-177 73t-73 177q0 72 39 134t105 92q-1 17-1 24 0 118 84 202t202 84q87 0 159-49t105-129q40 35 93 35 59 0 101-42t42-101q0-43-23-77 72-17 119-76t46-133z" horiz-adv-x="1071.4" />

<glyph glyph-name="heart" unicode="&#xe81e;" d="M380 18l-285 283c-66 65-95 137-95 200 0 109 73 182 183 182 102 0 137-48 197-117 60 69 95 117 198 117 110 0 182-73 182-182 0-63-29-135-95-200z" horiz-adv-x="760" />

<glyph glyph-name="chart-pie" unicode="&#xe81f;" d="M429 353l304-304q-59-61-138-94t-166-34q-117 0-216 58t-155 156-58 215 58 215 155 156 216 58v-426z m104-3h431q0-88-33-167t-94-138z m396 71h-429v429q117 0 215-57t156-156 58-216z" horiz-adv-x="1000" />

<glyph glyph-name="heart-broken" unicode="&#xe820;" d="M0 530q0 103 73 176t177 73q81 0 147-47l-14-250q0-12 9-20t21-9h10q12 0 18-8t3-20l-57-172q-4-12-2-13t9 8l194 267q7 9 4 16t-16 7h-77q-12 0-17 8t-1 18l82 183q57 32 124 32 103 0 177-73t73-176q0-94-63-166l-343-403q-25-31-62-31t-63 31l-342 403q-64 72-64 166z" horiz-adv-x="937.5" />

<glyph glyph-name="eye-off" unicode="&#xe821;" d="M0 326q6 49 64 110 79 80 176 128 129 61 260 61 29 0 59-2l74 129q10 16 23 18 4 0 8-2l51-32q17-7 2-33l-57-101-47-79-41-72-144-250-41-72-47-80-57-100q-15-25-31-15l-53 31q-15 8 0 33l49 86-8 4q-103 53-176 129-64 72-64 109z m264 0q0-74 47-133l48 84q-9 24-9 49 0 51 34 91t85 50l49 84-18 0q-98 0-167-66t-69-159z m177-295l41 71 18 0q98 0 167 65t69 159q0 74-47 133l63 109q2-2 4-3t4-1q103-52 176-128 64-73 64-110-6-49-64-109-79-80-176-129-129-61-260-61-25 0-59 4z m90 155l110 189q9-25 9-49 0-51-34-90t-85-50z" horiz-adv-x="1000" />

<glyph glyph-name="flash" unicode="&#xe822;" d="M598 349q23-12 26-39t-16-45l-391-370q-14-14-35-14-28 0-43 24t-6 49l113 270-220 128q-22 12-25 38t15 45l391 370q11 14 35 14 21 0 37-16t15-36q0-13-5-23l-111-267z" horiz-adv-x="624" />

<glyph glyph-name="make-child" unicode="&#xe823;" d="M987 596c-25 18-60 12-81-17-18-26-12-67 0-84 0 0 0 0-1-1-2-1-14-7-14-7-3-1-4-4-1-6l4-3a2 2 0 0 0 1-2c-9-13-82-117-114-164-7-8-5-1-5 4 7 38 16 83 18 94a2 2 0 0 0 2 1l5 0c3-1 5 1 3 4 0 0-3 13-4 15-1 1 0 1 0 1 20 4 54 28 60 59 6 36-14 64-45 70s-60-14-66-50c-6-31 17-65 35-75 0 0 0-1 0-2-2-2-10-13-10-13-3-2-2-4 1-5l6-1a2 2 0 0 0 1-2c-2-14-16-89-23-125 0-2-6-5-9-10-3-4-33-51-75-58h-102c-31 5-57 29-65 48-3 8-6 18-11 27l-77 173c-5 11-10 26-32 26h-165c-22 0-33-14-40-27l-78-171c-9-19-20-42-1-51s36-1 45 18l40 68s2 4 1 0c-5-28-47-165-47-165-3-17 8-32 26-32h42c3 0 3-2 3-2l8-221c0-28 9-43 31-43s31 15 31 43l8 222a2 2 0 0 0 2 1c2 0 8 0 10 0a2 2 0 0 0 1-1l9-222c0-28 9-43 31-43s31 15 31 43l8 221a3 3 0 0 0 3 2h45c18 0 30 15 26 32 0 0-41 143-45 168-1 6 43-72 43-72 7-15 22-13 29-23 14-22 31-44 48-54 28-17 29-10 31-34l0-17-9-69a9 9 0 0 1 4-9 3 3 0 0 0 3-4l-5-156c0-2 0-12 1-13a22 22 0 0 1 21-15 23 23 0 0 1 21 14c-1 0 21 152 24 152 4 0 25-152 25-152a23 23 0 0 1 20-14 22 22 0 0 1 21 15c0 1 1 11 0 13l-4 157a3 3 0 0 0 3 3 9 9 0 0 1 4 9l-9 64 0 22c2 24 3 17 31 34 28 17 58 74 59 81 1 9-3 13 0 17 20 29 121 173 131 187a2 2 0 0 0 2 0l4-3c3-2 5 0 5 3 0 0 2 13 2 15 0 2 1 2 1 2 20-6 61 2 79 28 21 29 15 64-11 82z m-688 124a98 98 0 1 0-99-98 98 98 0 0 0 99 98z m325-482a55 55 0 1 1-55 54 55 55 0 0 1 55-54z" horiz-adv-x="1000" />

<glyph glyph-name="circular-speedometer" unicode="&#xe824;" d="M500 850c-276 0-500-224-500-500s224-500 500-500 500 224 500 500-224 500-500 500z m422-500c0-57-12-112-34-164-21-50-51-95-90-134-39-39-84-69-134-90-52-22-107-34-164-34s-112 12-164 34c-50 21-95 51-134 90s-69 84-90 134c-22 52-33 107-33 164s11 112 33 164c21 50 51 95 90 134 39 39 84 69 134 90 52 22 107 34 164 34s112-12 164-34c50-21 95-51 134-90 39-39 69-84 90-134 22-52 34-107 34-164z m-422 374c-100 0-194-39-265-109-70-71-109-165-109-265s39-194 109-265c71-70 165-109 265-109s194 39 265 109c70 71 109 165 109 265s-39 194-109 265c-71 70-165 109-265 109z m118-81l-8-33-8-35-52-227-5-18c0-3-1-6-3-10-8-15-23-24-40-24-6 0-13 1-19 4-18 9-27 29-24 48 1 4 2 8 4 11l113 231 14 29 14 29c0 0 0 1 1 1 1 2 3 3 5 3 4 0 8-3 8-8 0 0 0-1 0-1z m-437-285c0 2 0 4 0 6 0 2 0 4 0 7 0 2 0 5 0 8 0 3 1 6 1 9 0 1 0 3 0 5 0 1 1 3 1 5 0 3 1 7 1 11 1 4 1 8 2 12 0 2 1 4 1 6 1 2 1 4 2 6 4 18 10 37 20 58 0 1 1 2 2 3 0 2 1 3 2 4 1 3 2 5 3 8 2 2 3 5 5 8 1 1 1 2 2 3 1 2 2 3 2 4 2 3 4 5 5 8 1 1 2 3 3 4 1 1 2 2 3 4 0 1 1 2 2 4l2 2 1 1c2 3 4 6 6 8l2 2c0 1 1 1 1 2 1 1 2 2 3 4 1 1 2 2 4 3l1 2c1 1 1 1 2 2 2 3 4 5 7 7l1 2 2 2c2 1 3 2 4 4 5 4 10 9 15 14 3 2 6 4 9 6 1 1 2 2 4 4 1 1 3 2 4 3 23 17 50 31 79 41 3 2 7 3 11 4 3 1 7 2 11 3l5 2 6 1 6 2c1 0 3 1 5 1 4 1 8 1 12 2 1 0 2 0 3 0l3 1 5 1 6 0c2 1 4 1 6 1l12 1c1 0 0 0 1 0l0 0 1 0 1 0 3 0 5 0 3 0 1 0c1 0 1 0 2 0l6 0 6 0 3 0c1 0 2 0 3 0 4-1 8-1 12-1 2 0 4-1 6-1l6-1 6 0 6-1c4-1 8-2 11-3 4 0 8-1 12-2 3-1 6-2 9-3l-14-28-14-29c-2 1-5 2-8 3-3 1-6 2-9 3l-5 1-5 2-4 1c-2 0-4 0-5 1-3 0-7 1-10 2-1 0-1 0-2 0l-2 0-5 1-5 1c0 0 0 0-1 0l-1 0-3 0-5 1-3 0-1 0-1 0 0 0c0 0-1 0 0 0l-10 0c-2 0-3 1-5 1l-5 0-5-1-2 0c-1 0-2 0-3 0-3 0-7 0-10 0-1 0-3-1-5-1l-5 0-5-1-5-1c-3 0-6-1-9-1-4-1-7-2-10-3-26-6-50-15-73-28-1-1-2-2-4-3-1 0-3-1-4-2-3-2-5-3-8-5-5-4-10-7-15-11-1-1-3-2-4-3l-2-1-1-2c-3-2-5-4-8-6 0 0-1-1-1-1l-2-2c-1-1-2-2-3-3-1-1-2-2-4-3 0-1-1-1-1-2l-2-1c-2-2-4-4-6-7l-2-1-1-2c-1-1-2-2-3-3-1-1-2-2-3-3-1-1-2-2-3-4-1-2-3-4-5-6-1-1-2-2-3-4 0-1-1-2-2-3-2-2-3-4-5-7-1-2-3-4-4-6-1-2-2-3-3-4 0-1-1-2-2-3-11-18-19-36-25-52 0-2-1-4-2-6-1-2-1-4-2-6-1-4-2-8-3-12-1-3-2-7-3-10 0-2 0-3-1-5 0-2 0-3-1-5 0-3-1-6-1-9-1-2-1-5-1-7-1-3-1-5-1-7-1-2-1-4-1-6 0-7-1-10-1-10 0 0 0 3 0 10z m591 154c1-2 2-3 3-4 13-22 22-43 29-62 1-3 2-5 2-7 1-3 2-5 3-7 1-5 2-10 3-14 1-4 2-8 3-12 1-2 1-4 2-6 0-2 0-4 1-6 0-3 1-7 1-10 1-3 1-7 2-9 0-3 0-6 1-8 0-3 0-5 0-7 1-8 1-12 1-12h-105c0 0 0 3 0 8 0 2 0 3 0 5 0 2 0 4 0 6 0 2 0 4 0 6 0 3 0 5 0 8 0 1 0 2 0 4-1 1-1 3-1 4 0 3 0 6-1 9 0 3-1 7-1 10-1 2-1 3-1 5-1 2-1 4-2 5-3 15-8 31-15 48-1 1-1 2-2 3 0 1-1 2-1 3-2 2-3 4-4 6-1 3-2 5-3 7-1 1-1 2-2 3-1 1-1 2-2 3-1 2-3 5-4 7-1 1-1 2-2 3-1 1-1 2-2 3-1 1-2 2-2 3l-2 2-1 2c-1 2-3 4-5 6l-1 2c0 0-1 1-1 1-1 1-2 2-3 3-1 1-1 2-2 3l-2 2c0 1-1 1-1 2-2 2-4 4-6 6l-1 1-2 2c-1 1-2 2-3 3-4 4-8 8-12 12-2 1-4 3-6 4l9 39 8 36c5-3 10-5 14-8 2-1 3-2 5-3 2-1 3-2 5-3 3-2 6-4 9-6 6-4 13-9 18-13 2-1 3-3 5-4l2-1 2-2c3-3 5-5 8-7 1-1 2-2 2-2l2-2c2-1 3-2 4-4 1-1 3-2 4-3 1-1 1-2 2-2l2-2c2-3 5-5 7-8l2-2 2-2c1-1 2-2 3-3 1-2 2-3 3-4 1-2 3-3 4-4 2-3 4-6 6-8 1-2 2-3 3-4 1-2 2-3 3-4 2-3 4-6 6-8 1-3 3-6 5-8 1-2 2-3 2-4z" horiz-adv-x="1000" />
</font>
</defs>
</svg>
